Dragon Ball Super | Broad City | 22.10.1813:29 Uhr Ministry Of Progressive 50 Supreme Tunes Vol.2 Trance320 kbit/s 0 / 01.234 Hits VID P2P DDL 0 Kommentare
 


 

Filecrypt zeigt vereinzelt Files als "n/a". Die Downloads sind trotzdem komplett.

DNS SERVER AENDERNum der staatlichen Zensur zu umgehen. Sollten wir von eurem Provider geseprrt werden, nutzt den TOR BROWSER oder ändert euren DNS SERVER.

Filmwünsche können bei uns im Forum abgegeben werden

Wir Speichern Nicht




 
 
 
Top Releases
Meg.German.DL.AC3.Dubbed.720...
Meg.German.DL.AC3.Dubbed.108...
Film.Stars.Dont.Die.in.Liver...
Film.Stars.Dont.Die.in.Liver...
In.den.Gaengen.2018.German.1...
Die.Unglaublichen.2.German.D...
Prinz.Charming.2018.German.A...
Die.Unglaublichen.2.German.D...
Die.Unglaublichen.2.German.D...
Unknown.Soldier.Kampf.ums.Va...

Cinedubs
Mission.Impossible.Fallout.2...
Mission.Impossible.Fallout.2...
BlacKkKlansman.2018.German.A...
BlacKkKlansman.2018.German.A...
Mandy.2018.German.AC3MD.DL.7...
Mandy.2018.German.AC3MD.DL.1...
The.Guilty.2018.German.AC3MD...
The.Guilty.2018.German.AC3MD...
Der.Affront.2017.GERMAN.AC3....
Der.Affront.2017.GERMAN.AC3....

Neuerscheinungen 2017-18
Oceans.8.German.DL.1080p.Blu...
Oceans.8.German.DL.720p.BluR...
Papst.Franziskus.Ein.Mann.se...
Herrliche.Zeiten.German.720p...
Herrliche.Zeiten.German.1080...
Zeugin.der.Anklage.Witness.f...
Verborgenes.Indien.Land.des....
Ein.Weihnachtsspass.auf.vier...
Die.Fuersten.der.Dunkelheit....
Padre.2018.German.AC3D.5.1.D...

XXX
SneakySex.18.10.13.Kira.Noir...
SinsLife.18.10.14.Aubrey.Bla...
SpyFam.18.10.15.Asuna.Fox.XX...
SweetSinner.18.10.13.Jade.Ni...
TeensLoveHugeCocks.18.10.17....
WildOnCam.18.10.16.Draven.St...
TeenCreeper.E33.Lily.Adams.X...
SpermSwap.18.10.15.Nicoletta...
RealGirlsPlay.14.09.20.Elekt...
RodneyMoore.18.10.12.Izzy.Ta...
VIPissy.18.10.15.Nicol.Love....
RodneyMoore.18.10.10.Siri.Bo...
Private.18.10.16.Gina.Gerson...
SinfulXXX.18.10.11.Sienna.Da...
SheWillCheat.18.10.11.Holly....
RealGirlsPlay.14.08.24.Kayle...
TrenchCoatX.18.10.12.Alina.L...
Tushy.18.10.13.Emily.Willis....
SapphicErotica.18.10.18.Mia....
RealWifeStories.18.10.18.Ric...

3D
Die.Unglaublichen.2.3D.2018....
Die.Unglaublichen.2.2018.3D....
Die.Unglaublichen.2.2018.3D....
Sharknado.6.The.Last.One.3D....
Deep.Kleine.Helden.der.Tiefs...
Deep.3D.2017.MULTI.COMPLETE....
Detective.Dee.und.die.Legend...
Detective.Dee.und.die.Legend...
Skyscraper.3D.German.DL.AC3....
Ant-Man.and.the.Wasp.2018.3D...
Jurassic.World.Das.gefallene...
Jurassic.World.Das.gefallene...
Best.of.3D.vol.10.-.12.GERMA...
Die.Biene.Maja.2.Die.Honigsp...
Sharknado.6.The.Last.One.3D....

Old_Stuff
Species.IV.Das.Erwachen.2007...
Species.IV.Das.Erwachen.2007...
Hotel.Transsilvanien.2012.Ge...
The.Dead.2010.German.DL.1080...
The.Dead.2.India.2013.German...
Britney.Spears.Live.The.Femm...
Buffy.The.Vampire.Slayer.199...
IMAX.Ride.Around.The.World.2...
Schimanski.-.Duisburg.Ruhror...
Akte.X.S02.German.DTS.DL.108...
How.I.Met.Your.Mother.S02.Ge...
Akte.X.S01.German.DTS.DL.108...
Den.Himmel.gibts.echt.DL.108...
Vikings.S02.German.DL.1080p....
Be.Kind.Rewind.Abgedreht.200...

Filme
Gate.Die.Unterirdischen.GERM...
Gate.Die.Unterirdischen.GERM...
Quatsch.und.die.NasenbaerBan...
Rufmord.-.Jenseits.der.Moral...
Pfad.des.Kriegers.2018.Germa...
The.Other.Woman.German.DL.10...
Twisted.-.Der.erste.Verdacht...
Black.Lightning.S02.GERMAN.D...
Black.Lightning.S02.GERMAN.D...
The.Walking.Dead.S09.GERMAN....
The.Walking.Dead.S09.GERMAN....
Legends.of.Tomorrow.S03.Germ...
Fight.Valley.2016.German.DL....
Frantz.2016.German.1080p.Blu...
Duell.1971.Kinosynchro.Germa...
Alle.Herrlichkeit.auf.Erden....
Ash.vs.Evil.Dead.S02D01+2.CO...
Die.Mumie.1999.UHD2BD.1080p....
Gangstas.4.Life.2018.German....
Football.Leaks.Von.Gier.Lueg...
Legendary.Weapons.of.China.1...
Unknown.Soldier.Kampf.ums.Va...
Ein.Weihnachtsspass.auf.vier...
Die.Fuersten.der.Dunkelheit....

 
 
Papst.Franziskus.Ein.Mann.seines.Wortes.2018.German.720p.BluRay.x264-RWP

Jahr: 2018
Genre: Dokumentation
Sprache: Deutsch DTS
Laufzeit: 1h 36mn
Bitrate: 5 322 Kbps
Format: MKV
Größe: 3.58 GiB
Release:

Beschreibung:

Wim Wenders Dokumentarfilm PAPST FRANZISKUS – EIN MANN SEINES WORTES bringt uns in einer Zeit, in der das Misstrauen gegenüber Politikern groß ist und in der Lügen, Korruption und „alternative Fakten“ unser Leben bestimmen, einen Mann nahe, der lebt, was er predigt, und dem die Menschen aller Glaubensrichtungen, aus aller Welt und aus unterschiedlichsten Kulturen ihr Vertrauen schenken.



Complete name                            : rwp-papstfranziskus-720p.mkv
Format                                   : Matroska
Format version                           : Version 4 / Version 2
File size                                : 3.58 GiB
Duration                                 : 1h 36mn
Overall bit rate                         : 5 322 Kbps
Encoded date                             : UTC 2018-11-06 16:53:42
Writing application                      : mkvmerge v19.0.0 ('Brave Captain') 64-bit
Writing library                          : libebml v1.3.5 + libmatroska v1.4.8
DURATION                                 : 01:30:50.361000000
NUMBER_OF_FRAMES                         : 899
NUMBER_OF_BYTES                          : 34033
_STATISTICS_WRITING_APP                  : mkvmerge v19.0.0 ('Brave Captain') 64-bit
_STATISTICS_WRITING_DATE_UTC             : 2018-11-06 16:53:42
_STATISTICS_TAGS                         : BPS DURATION NUMBER_OF_FRAMES NUMBER_OF_BYTES

Video
ID                                       : 1
Format                                   : AVC
Format/Info                              : Advanced Video Codec
Format profile                           : High@L4.1
Format settings, CABAC                   : Yes
Format settings, ReFrames                : 5 frames
Codec ID                                 : V_MPEG4/ISO/AVC
Duration                                 : 1h 36mn
Bit rate                                 : 4 448 Kbps
Width                                    : 1 280 pixels
Height                                   : 688 pixels
Display aspect ratio                     : 1.85:1
Frame rate mode                          : Constant
Frame rate                               : 23.976 fps
Color space                              : YUV
Chroma subsampling                       : 4:2:0
Bit depth                                : 8 bits
Scan type                                : Progressive
Bits/(Pixel*Frame)                       : 0.211
Stream size                              : 2.99 GiB (84%)
Writing library                          : x264 core 157 r2935 545de2f
Encoding settings                        : cabac=1 / ref=5 / deblock=1:-1:-1 / analyse=0x3:0x133 / me=umh / subme=7 / psy=1 / psy_rd=1.00:0.15 / mixed_ref=1 / me_range=16 / chroma_me=1 / trellis=1 / 8x8dct=1 / cqm=0 / deadzone=21,11 / fast_pskip=0 / chroma_qp_offset=-3 / threads=16 / lookahead_threads=2 / sliced_threads=0 / nr=0 / decimate=1 / interlaced=0 / bluray_compat=0 / constrained_intra=0 / bframes=3 / b_pyramid=2 / b_adapt=1 / b_bias=0 / direct=1 / weightb=1 / open_gop=0 / weightp=2 / keyint=250 / keyint_min=23 / scenecut=40 / intra_refresh=0 / rc_lookahead=40 / rc=crf / mbtree=1 / crf=20.0 / qcomp=0.60 / qpmin=0 / qpmax=69 / qpstep=4 / ip_ratio=1.40 / aq=1:1.00
Default                                  : Yes
Forced                                   : No

Audio
ID                                       : 2
Format                                   : DTS
Format/Info                              : Digital Theater Systems
Mode                                     : 16
Format settings, Endianness              : Big
Codec ID                                 : A_DTS
Duration                                 : 1h 36mn
Bit rate mode                            : Constant
Bit rate                                 : 768 Kbps
Channel(s)                               : 6 channels
Channel positions                        : Front: L C R, Side: L R, LFE
Sampling rate                            : 48.0 KHz
Bit depth                                : 24 bits
Compression mode                         : Lossy
Stream size                              : 529 MiB (14%)
Language                                 : German
Default                                  : Yes
Forced                                   : No

Text
ID                                       : 3
Format                                   : UTF-8
Codec ID                                 : S_TEXT/UTF8
Codec ID/Info                            : UTF-8 Plain Text
Language                                 : German
Default                                  : Yes
Forced                                   : Yes


Download:
Share Online Share OnlineShare OnlineShare Online
 

Kommentare