A Stranger In Paradise | Mr Peter Pan | Download
 


 

Filecrypt zeigt vereinzelt Files als "n/a". Die Downloads sind trotzdem komplett.

DNS SERVER AENDERNum der staatlichen Zensur zu umgehen. Sollten wir von eurem Provider geseprrt werden, nutzt den TOR BROWSER oder ändert euren DNS SERVER.

Filmwünsche können bei uns im Forum abgegeben werden

Wir Speichern Nicht




 
 
 
Top Releases
In.den.Gaengen.2018.German.A...
Oceans.8.2018.MULTi.COMPLETE...
Outlaw.King.2018.German.DL.1...
Outlaw.King.2018.German.DL.7...
Ploetzlich.Papa.2016.German....
Gun.City.2018.German.AC3.108...
Ant.Man.and.the.Wasp.2018.Ge...
Ant.Man.and.the.Wasp.2018.Ge...
Ant.Man.and.the.Wasp.2018.Ge...
Star.Wars.Episode.VIII.Die.l...

Cinedubs
Predator.Upgrade.German.DL.A...
Predator.Upgrade.German.DL.A...
10×10.2018.German.AC3D.DL.1...
10×10.2018.German.AC3D.DL.7...
Sicario.2.German.DL.AC3.Dubb...
Sicario.2.German.DL.AC3.Dubb...
Hotel.Artemis.German.DL.AC3....
Hotel.Artemis.German.DL.AC3....
Mission.Impossible.Fallout.2...
Mission.Impossible.Fallout.2...

Neuerscheinungen 2017-18
Appgefahren.Alles.ist.moegli...
Bent.Korruption.kennt.keine....
Bent.Korruption.kennt.keine....
Cut.Shoot.Kill.2017.German.D...
Cut.Shoot.Kill.2017.German.7...
Rambo.2.Der.Auftrag.1985.MUL...
The.Boys.from.Brazil.1978.MU...
Rambo.III.1988.MULTI.COMPLET...
Rambo.First.Blood.1982.COMPL...
Dead.Men.2018.COMPLETE.BLURA...

XXX
Daring.Addiction.XXX.1080p.W...
Cheat.Beat.XXX.1080p.WEBRip....
Cheat.Beat.XXX.720p.WEBRip.M...
Daring.Addiction.XXX.720p.WE...
BustyArianna.18.07.05.Ariann...
BangBros18.18.10.30.Sophia.L...
Bang.RealTeens.18.10.29.Vina...
Babes.18.10.31.Ivy.Wolfe.Unm...
The.Game.XXX.1080p.WEBRip.MP...
TheLifeErotic.18.10.30.Lucy....
TonightsGirlfriend.18.10.31....
ATKGirlfriends.18.10.28.Khlo...
TwistysHard.18.10.31.Kimmy.G...
BustyArianna.18.07.23.Ariann...
BustyArianna.18.07.14.The.Ot...
The.Game.XXX.720p.WEBRip.MP4...
BustyArianna.18.07.29.Ariann...
ATKHairy.18.10.31.Andy.Moon....
AmateurCFNM.18.10.30.Ashley....
TheLifeErotic.18.10.28.Raisa...

3D
Die.Unglaublichen.2.3D.2018....
Die.Unglaublichen.2.2018.3D....
Die.Unglaublichen.2.2018.3D....
Sharknado.6.The.Last.One.3D....
Deep.Kleine.Helden.der.Tiefs...
Deep.3D.2017.MULTI.COMPLETE....
Detective.Dee.und.die.Legend...
Detective.Dee.und.die.Legend...
Skyscraper.3D.German.DL.AC3....
Ant-Man.and.the.Wasp.2018.3D...
Jurassic.World.Das.gefallene...
Jurassic.World.Das.gefallene...
Best.of.3D.vol.10.-.12.GERMA...
Die.Biene.Maja.2.Die.Honigsp...
Sharknado.6.The.Last.One.3D....

Old_Stuff
Detective.Dee.und.das.Geheim...
Detective.Dee.Und.Der.Fluch....
Ghost.Rider.Spirit.of.Vengea...
Species.IV.Das.Erwachen.2007...
Species.IV.Das.Erwachen.2007...
Hotel.Transsilvanien.2012.Ge...
The.Dead.2010.German.DL.1080...
The.Dead.2.India.2013.German...
Britney.Spears.Live.The.Femm...
Buffy.The.Vampire.Slayer.199...
IMAX.Ride.Around.The.World.2...
Schimanski.-.Duisburg.Ruhror...
Akte.X.S02.German.DTS.DL.108...
How.I.Met.Your.Mother.S02.Ge...
Akte.X.S01.German.DTS.DL.108...

Filme
The.Sinner.S02.COMPLETE.Germ...
The.Sinner.S02.COMPLETE.Germ...
Beat.S01.COMPLETE.German.DD+...
Beat.S01.COMPLETE.German.DD+...
Die.Simpsons.S29.GERMAN.DUBB...
iZombie.S04.German.DD51.Dubb...
iZombie.S04.German.DD51.Dubb...
Humans.S03.German.DD20.Dubbe...
Krypton.S01.German.DD51.Dubb...
The.Underdog.Knight.2008.Ger...
The.Undead.Strigoi.2009.Germ...
The.Twilight.Werewolf.2010.G...
The.TV.Set.2006.German.DL.10...
Suits.S01-S06.COMPLETE.Germa...
The.Zero.Hour.2010.German.10...
Matrix.Revolutions.USA.2003....
Formel.1.Saison.2018.GERMAN....
Shopaholic.Die.Schnaeppchenj...
Zulu.Dawn.Die.letzte.Offensi...
Das.Blutbiest.1968.German.DL...
Fight.Club.REMASTERED.1999.G...
42.Die.wahre.Geschichte.eine...
Revenge.Eine.gefaehrliche.Af...
Revenge.Eine.gefaehrliche.Af...

 
 
The.Tortured.Das.Gesetz.der.Vergeltung.2010.German.DL.1080p.BluRay.x264-ENCOUNTERS

Jahr: 2010
Genre: Horror, Thriller
Sprache: Deutsch DTS | Englisch DTS
Laufzeit: 1h 18mn
Bitrate: 12.0 Mbps
Format: MKV
Größe: 6.56 GiB
Release:

Beschreibung:

Das junge Paar Craig (Jesse Metcalfe, “Desperate Housewives”) und Elise Landry (Erika Christensen) hat alles, was man sich wünschen kann: Eine tolle Hochzeit, ein perfektes Zuhause, eine glänzende Zukunft und einen tollen 5-jährigen Sohn namens Ben. Doch dann, an einem sonnigen Tag, wird ihre heile Welt unwiderruflich brutal zerstört: Als Craig Ben nur einen Moment allein lässt, wird er aus ihrem Vorgarten entführt – die Polizei kann das Kind nur noch tot auffinden.



Complete name                            : encounters-tortured_1080p.mkv
Format                                   : Matroska
Format version                           : Version 2
File size                                : 6.56 GiB
Duration                                 : 1h 18mn
Overall bit rate                         : 12.0 Mbps
Encoded date                             : UTC 2012-11-29 23:26:21
Writing application                      : mkvmerge v5.8.0 ('No Sleep / Pillow') built on Sep  2 2012 15:37:04
Writing library                          : libebml v1.2.3 + libmatroska v1.3.0

Video
ID                                       : 1
Format                                   : AVC
Format/Info                              : Advanced Video Codec
Format profile                           : High@L4.1
Format settings, CABAC                   : Yes
Format settings, ReFrames                : 4 frames
Codec ID                                 : V_MPEG4/ISO/AVC
Duration                                 : 1h 18mn
Bit rate                                 : 8 965 Kbps
Width                                    : 1 920 pixels
Height                                   : 1 080 pixels
Display aspect ratio                     : 16:9
Frame rate mode                          : Constant
Frame rate                               : 23.976 fps
Color space                              : YUV
Chroma subsampling                       : 4:2:0
Bit depth                                : 8 bits
Scan type                                : Progressive
Bits/(Pixel*Frame)                       : 0.180
Stream size                              : 4.78 GiB (73%)
Title                                    : encounters-tortured_1080p
Writing library                          : x264 core 129 r2230 1cffe9f
Encoding settings                        : cabac=1 / ref=4 / deblock=1:-3:-3 / analyse=0x3:0x133 / me=umh / subme=7 / psy=1 / psy_rd=1.00:0.15 / mixed_ref=1 / me_range=16 / chroma_me=1 / trellis=1 / 8x8dct=1 / cqm=0 / deadzone=21,11 / fast_pskip=0 / chroma_qp_offset=-3 / threads=12 / lookahead_threads=2 / sliced_threads=0 / nr=0 / decimate=1 / interlaced=0 / bluray_compat=0 / constrained_intra=0 / bframes=3 / b_pyramid=2 / b_adapt=1 / b_bias=0 / direct=1 / weightb=1 / open_gop=0 / weightp=2 / keyint=250 / keyint_min=23 / scenecut=40 / intra_refresh=0 / rc_lookahead=40 / rc=2pass / mbtree=1 / bitrate=8965 / ratetol=1.0 / qcomp=0.60 / qpmin=0 / qpmax=69 / qpstep=4 / cplxblur=20.0 / qblur=0.5 / ip_ratio=1.40 / aq=1:1.00
Default                                  : Yes
Forced                                   : No

Audio #1
ID                                       : 2
Format                                   : DTS
Format/Info                              : Digital Theater Systems
Mode                                     : 16
Format settings, Endianness              : Big
Codec ID                                 : A_DTS
Duration                                 : 1h 18mn
Bit rate mode                            : Constant
Bit rate                                 : 1 509 Kbps
Channel(s)                               : 6 channels
Channel positions                        : Front: L C R, Side: L R, LFE
Sampling rate                            : 48.0 KHz
Bit depth                                : 24 bits
Compression mode                         : Lossy
Stream size                              : 845 MiB (13%)
Title                                    : German_DTS_1510kbps
Language                                 : German
Default                                  : Yes
Forced                                   : No

Audio #2
ID                                       : 3
Format                                   : DTS
Format/Info                              : Digital Theater Systems
Mode                                     : 16
Format settings, Endianness              : Big
Codec ID                                 : A_DTS
Duration                                 : 1h 18mn
Bit rate mode                            : Constant
Bit rate                                 : 1 509 Kbps
Channel(s)                               : 6 channels
Channel positions                        : Front: L C R, Side: L R, LFE
Sampling rate                            : 48.0 KHz
Bit depth                                : 24 bits
Compression mode                         : Lossy
Stream size                              : 845 MiB (13%)
Title                                    : Englisch_DTS_1510kbps
Language                                 : English
Default                                  : No
Forced                                   : No

Text
ID                                       : 4
Format                                   : UTF-8
Codec ID                                 : S_TEXT/UTF8
Codec ID/Info                            : UTF-8 Plain Text
Title                                    : forced_ger.srt
Language                                 : German
Default                                  : Yes
Forced                                   : No


Download:
Share Online Share OnlineShare OnlineShare Online
 

Kommentare